Вы можете оставить нам свой телефон, почту или любой другой удобный вам контакт и мы с вами свяжемся в ближайшее время.
Перезвоните мне
+38 (044) 259-94-59, +38 (050) 763-17-74
+38 (067) 466-81-51, +38 (093) 243-10-94
svoydom1@gmail.com
Обратный звонок

Star Trek Beyond 2016 FastDL download movie torrent

Seeds 13 Peers 31 Health

Star Trek Beyond 2016 FastDL download movie torrent

Download Trusted uploader

Format: MPEG-4

Format profile: media foundation

Codec ID: Isom

File size: 758 MiB

Duration: 1h 53mn

Overall bit rate mode: Variable

Overall bit rate: 936 Kbps

Date coded: 09/08/2016 14:30:05 UTC

Tagged Date: 09/08/2016 14:30:05 UTC

written application: Lite MP4 Tool

video

ID: 1

Format: AVC

Format / Info: Advanced Video Codec

Format profile: / * * /

Format setting CABAC: Yes

Format setting reframes: 3 frame

Codec ID: VC1

Codec ID / Info: Advanced Video Coding

Duration: 1h 53mn

Bit rate: 800 Kbps

Maximum bitrate: 3884 Kbps

Width: 720 pixels

Height: 410 pixels

Aspect ratio: 16: 9

Frame rate mode: Constant

Frame Rate: fps

Color Space: YUV

Chroma subsampling: 4: 2: 0

Bit depth: 8 bits

Scan type: Progressive

Bits / (Pixel * Frame):

Stream size: 652 MiB (86%)

Title: Import GPAC (. Internal put 5)

Writing library: x264 core 80 r1376 3feaec2

audio

ID: 2

Format: AAC

Format / Info: Advanced Audio Codec

Format profile: LC

Codec ID: 40

Duration: 1h 53mn

Bitrate mode: Variable

Bit rate: 128 Kbps

The maximum bit rate: 149 Kbps

Number of channels: 1 channel

Channel positions: Front: C

Sampling rate kHz

Compression mode: Lossy

Stream size: 104 MiB (14%)

Date coded: 08/09/2016 14:30:18 UTC

Tagged Date: 08/09/2016 14:30:19 UTC

The crew of the Enterprise to investigate the unexplored space farthest from where he meets a mysterious new enemy is and what the federal government was put to the test set.

Star Trek Beyond 2016

Рубрики: avi,torrent

Добавить комментарий

Ваш e-mail не будет опубликован. Обязательные поля помечены *